Nicole Anderson | Eps8 Into the Badlands - Season 3 (2018) | Катастрофа

Скачать через торрент Белый воротничок White Collar Фильм бесплатно в хорошем качестве torrent

Скачивайте на UnionPeer.org фильмы через торрент без регистрации. Новинки кино в хорошем качестве через торрент. На UnionPeer.org можно скачать через торрент фильмы 2014 и 2015 годов. Самые новые фильмы.

Скачать торрент Белый воротничок White Collar бесплатно через .torrent фильм мультфильм сериал

Статистика раздачи
Размер:  22.5 GB   |    Зарегистрирован:  6 лет 8 месяцев   |    .torrent скачан:  141 раз   |   
Раздают:  1  
   
загрузка...
 
Автор Сообщение

L


Белый воротничок / White Collar

Год выпуска: 2011
Страна: США
Жанр: драма, криминал, детектив
Продолжительность: ~ 00:44:00
Перевод: Профессиональный (двухголосый закадровый) - NewStudio
Русские субтитры: нет
Субтитры: отсутствуют
Режиссёр: Джон Т. Кречмер, Кевин Брэй, Дэнни Гордон
В ролях: Мэттью Бомер (Neal Caffrey), Тим ДиКей (Peter Burke), Уилли Гарсон (Mozzie), Шариф Аткинс (Jones), Тиффани Тиссен (Elizabeth Burke), Натали Моралес (Lauren Cruz), Джеймс Ребхорн (Reese Hughes), Александра Даддарио (Kate), Дайан Кэрролл (June), Глория Вотсис (Alex), Ноа Эммерик (Garrett Fowler), Пайпер Кенни (OPR Agent) и др.
Описание: Сериал рассказывает о сотрудничестве гениального мошенника и агента ФБР. Нил Кэффри, невероятно обаятельный преступный ум, наконец-то был пойман своим извечным врагом, отличным агентом государственной безопасности Питером Берком. Когда Нил бежит из тюрьмы, чтобы найти свою пропавшую любовь, Питер ловит его еще раз. Нил предлагает ему не торопиться с отправкой в тюрьму, и рассмотреть возможность сотрудничества. Ведь Нил мог бы помочь словить самых “элитных” преступников, “белых воротничков” преступного мира. Питер понимает, что интуиция и преступный опыт Нила, которых нет у законопослушного агента, могут стать хорошим подспорьем в борьбе с криминалом.

Над релизом работали:
Озвучка: Gutta, Caps
Перевод: Negenka
Подготовка видео: ЛП
Работа со звуком: Baggio
Качество: WEB-DL 720p
Формат: MKV
Видео кодек: H.264
Аудиокодек: AC3
Видео: MPEG-4 AVC, 1280 x 720 (1.778), 3916 Kbps, 23.976 fps
Аудио (rus): AC3, 48 КГц 2 ch, 192 Кбит/с
Аудио 2 (eng): AC3, 48 КГц, 6 ch, 384 Кбит/с
General
Complete name : I:\Белый Воротничок 720p (Сезон 3) NewStudio\White.Collar.s03e01.Web-DL.720p.NewStudioTV.mkv
Format : Matroska
File size : 1.37 GiB
Duration : 42mn 52s
Overall bit rate : 4 580 Kbps
Encoded date : UTC 2011-06-10 15:53:14
Writing application : mkvmerge v3.3.0 ('Language') built on Mar 24 2010 14:59:24
Writing library : libebml v0.8.0 + libmatroska v0.9.0

Video
ID : 1
Format : AVC
Format/Info : Advanced Video Codec
Format profile : <a href="mailto:High@L3.1" class="postLink">High@L3.1</a>
Format settings, CABAC : No
Format settings, ReFrames : 2 frames
Muxing mode : Container profile=Unknown@3.1
Codec ID : V_MPEG4/ISO/AVC
Duration : 42mn 49s
Bit rate : 3 913 Kbps
Width : 1 280 pixels
Height : 720 pixels
Display aspect ratio : 16/9
Frame rate : 23.976 fps
Resolution : 24 bits
Colorimetry : 4:2:0
Scan type : Progressive
Bits/(Pixel*Frame) : 0.177
Stream size : 1.17 GiB (85%)

Audio #1
ID : 2
Format : AC-3
Format/Info : Audio Coding 3
Codec ID : A_AC3
Duration : 42mn 52s
Bit rate mode : Constant
Bit rate : 192 Kbps
Channel(s) : 2 channels
Channel positions : L R
Sampling rate : 48.0 KHz
Stream size : 58.9 MiB (4%)
Language : Russian

Audio #2
ID : 3
Format : AC-3
Format/Info : Audio Coding 3
Codec ID : A_AC3
Duration : 42mn 52s
Bit rate mode : Constant
Bit rate : 384 Kbps
Channel(s) : 6 channels
Channel positions : Front: L C R, Surround: L R, LFE
Sampling rate : 48.0 KHz
Stream size : 118 MiB (8%)
Language : English
Раздача ведётся путём добавления новых серий; при каждом добавлении создаётся новый торрент. Чтобы начать докачку новой серии, пользователям необходимо сделать следующее:
(1) остановить скачивание,
(2) удалить старый торрент у себя из клиента (старые серии удалять не надо),
(3) скачать новый торрент и запустить его у себя в клиенте вместо старого, при этом указать клиенту путь в старую папку куда и должно происходить скачивание новых серий.

Ваш клиент при этом должен произвести хеширование (проверку) старой папки (если не производит сам - помогите ему сделать это), и будет докачивать только те серии которых у вас ещё нет. Старые серии при этом не удаляются, а продолжают раздаваться!

Eсли вы уже удалили старые серии, то предотвратить повторную закачку старых серий можно, отжав галочку в соответствующих местах при запуске нового торрента. По возможности, желательно не удалять старые серии как можно дольше чтобы релизёр не столько продолжал раздавать старые серии, а смог сконцентрироваться на новых.


Трекер:  [ 06-Мар-2012 08:37 ]

  

Скачать .torrent

Размер .torrent файла 58 KB


Размер: 22.5 GB
Хэш (hash) релиза: 4f2f35152c44ec41885d3cd86fdb6c605d7ab7e3
Подписка на обновления:

Еще никто не оставлял запись к записи скачать торрент Белый воротничок White Collar . Будь первым!

!Обратная связь