Download The Hitman's Bodyguard Torrent | Word Beach: Connect Letters, Fun Word Search Games | Shikabane Hime: Kuro

Скачать через торрент Белый воротничок White Collar Фильм бесплатно в хорошем качестве torrent

Скачивайте на UnionPeer.org фильмы через торрент без регистрации. Новинки кино в хорошем качестве через торрент. На UnionPeer.org можно скачать через торрент фильмы 2014 и 2015 годов. Самые новые фильмы.

Скачать торрент Белый воротничок White Collar бесплатно через .torrent фильм мультфильм сериал

Статистика раздачи
Размер:  15.67 GB   |    Зарегистрирован:  6 лет 8 месяцев   |    .torrent скачан:  88 раз   |   
Раздают:  1  
   
загрузка...
 
Автор Сообщение

L


Белый воротничок / White Collar

Год выпуска: 2011
Страна: США
Жанр: драма, криминал, детектив
Продолжительность: ~45 минут серия
Перевод: оригинал
Русские субтитры: есть
Субтитры: Русские(Notabenoid JuliaS), английские

Режиссёр: Джон Т. Кречмер / John T. Kretchmer, Кевин Брэй / Kevin Bray, Дэнни Гордон / Dennie Gordon

В ролях: Мэттью Бомер (Neal Caffrey), Тим ДиКей (Peter Burke), Уилли Гарсон (Mozzie), Шариф Аткинс (Jones), Тиффани Тиссен (Elizabeth Burke), Натали Моралес (Lauren Cruz), Джеймс Ребхорн (Reese Hughes), Александра Даддарио (Kate), Дайан Кэрролл (June), Глория Вотсис (Alex), Ноа Эммерик (Garrett Fowler), Пайпер Кенни (OPR Agent)

Описание: Сериал рассказывает о сотрудничестве гениального мошенника и агента ФБР. Нил Кэффри, невероятно обаятельный преступный ум, наконец-то был пойман своим извечным врагом, отличным агентом государственной безопасности Питером Стоуксом. Когда Нил бежит из тюрьмы, чтобы найти свою пропавшую любовь, Питер ловит его еще раз. Нил предлагает ему не торопиться с отправкой в тюрьму, и рассмотреть возможность сотрудничества. Ведь Нил мог бы помочь словить самых “элитных” преступников, “белых воротничков” преступного мира. Питер понимает, что интуиция и преступный опыт Нила, которых нет у законопослушного агента, могут стать хорошим подспорьем в борьбе с криминалом.



Список серий:
1. On Guard
2. Where There's A Will
3. Deadline
4. Dentist of Detroit
5. Veiled Threat
6. Scott Free
7. Taking Account
8. As You Were (WEB-DL, DD5.1)
9. On the Fence сабы от Sorc
10. Countdown
11. Checkmate
12. Upper West Side Story сабы от Annette84
13. Neighborhood Watch
14. Pulling Strings
15. Stealing Home
16. Judgment Day

Качество: HDTV
Формат: MKV
Видео кодек: AVC
Аудиокодек: AC3
Видео: AVC, 1280x720 (16:9), 24fps, 3700Kbps, ~0.148 bit/pixel
Аудио: English; AC3; 384 Kbps; 6 ch; 48,0 КГц [Original]
Format : Matroska
File size : 1.09 GiB
Duration : 42mn 2s
Overall bit rate : 3 721 Kbps
Encoded date : UTC 2010-02-22 21:41:29
Writing application : no_variable_data
Writing library : no_variable_data
Video #2
ID : 2
Format : AVC
Format/Info : Advanced Video Codec
Format profile : <a href="mailto:High@L3.1" class="postLink">High@L3.1</a>
Format settings, CABAC : Yes
Format settings, ReFrames : 3 frames
Muxing mode : Container profile=Unknown@3.1
Codec ID : V_MPEG4/ISO/AVC
Duration : 42mn 2s
Bit rate : 3 263 Kbps
Nominal bit rate : 3 335 Kbps
Width : 1 280 pixels
Height : 720 pixels
Display aspect ratio : 16:9
Frame rate : 23.976 fps
Resolution : 8 bits
Colorimetry : 4:2:0
Scan type : Progressive
Bits/(Pixel*Frame) : 0.148
Stream size : 981 MiB (88%)
Writing library : x264 core 85 r1442tw
Encoding settings : cabac=1 / ref=3 / deblock=1:0:0 / analyse=0x3:0x113 / me=hex / subme=6 / psy=1 / psy_rd=1.00:0.00 / mixed_ref=0 / me_range=16 / chroma_me=1 / trellis=1 / 8x8dct=1 / cqm=0 / deadzone=21,11 / fast_pskip=1 / chroma_qp_offset=-2 / threads=30 / sliced_threads=0 / nr=0 / decimate=1 / mbaff=0 / constrained_intra=0 / bframes=6 / b_pyramid=1 / b_adapt=1 / b_bias=0 / direct=1 / wpredb=1 / wpredp=0 / keyint=240 / keyint_min=24 / scenecut=40 / intra_refresh=0 / rc_lookahead=40 / rc=2pass / mbtree=1 / bitrate=3335 / ratetol=1.0 / qcomp=0.60 / qpmin=10 / qpmax=51 / qpstep=4 / cplxblur=20.0 / qblur=0.5 / ip_ratio=1.40 / aq=1:1.00
Language : English
Audio #1
ID : 1
Format : AC-3
Format/Info : Audio Coding 3
Format_Settings_ModeExtension : CM (complete main)
Codec ID : A_AC3
Duration : 42mn 2s
Bit rate mode : Constant
Bit rate : 384 Kbps
Channel(s) : 6 channels
Channel positions : Front: L C R, Side: L R, LFE
Sampling rate : 48.0 KHz
Stream size : 115 MiB (10%)
Внимание! Раздача ведётся путём добавления новых серий; при каждом добавлении создётся новый торрент. Чтобы начать докачку новой серии, пользователям необходимо сделать следующее:
(1) остановить скачивание,
(2) удалить старый торрент у себя из клиента (старые серии удалять не надо),
(3) скачать новый торрент и запустить его у себя в клиенте вместо старого, при этом указать клиенту путь в старую папку куда и должно происходить скачивание новых серий.
Ваш клиент при этом должен произвести хеширование (проверку) старой папки (если не производит сам - помогите ему сделать это), и будет докачивать только те серии которых у вас ещё нет. Старые серии при этом не удаляются, а продолжают раздаваться!
Eсли вы уже удалили старые серии, то предотвратить повторную закачку старых серий можно, отжав галочку в соответсвующих местах при запуске нового торрента.


Трекер:  [ 01-Мар-2012 16:08 ]

  

Скачать .torrent

Размер .torrent файла 44 KB


Размер: 15.67 GB
Хэш (hash) релиза: 40212d43872a92b7fb367276f733ea49ef8ce116
Подписка на обновления:

Еще никто не оставлял запись к записи скачать торрент Белый воротничок White Collar . Будь первым!

!Обратная связь