Más detalles | Devious Maids S04E07 HDTV x264-FLEET[rartv] | Ultimate Retouch Panel 3.5 Full

Скачать через торрент Белый Воротничок White Collar Фильм бесплатно в хорошем качестве torrent

Скачивайте на UnionPeer.org фильмы через торрент без регистрации. Новинки кино в хорошем качестве через торрент. На UnionPeer.org можно скачать через торрент фильмы 2014 и 2015 годов. Самые новые фильмы.

Скачать торрент Белый Воротничок White Collar бесплатно через .torrent фильм мультфильм сериал

Статистика раздачи
Размер:  5.47 GB   |    Зарегистрирован:  6 лет 8 месяцев   |    .torrent скачан:  222 раза   |   
Раздают:  1  
   
загрузка...
 
Автор Сообщение

L


Белый Воротничок / White Collar

Год выпуска: 2011
Страна: США
Жанр: Детектив, драма, комедия
Продолжительность: ~ 42 мин.
Перевод: субтитры
Русские субтитры: есть
Субтитры: русские (notabenoid)

Режиссёр: Бронуэн Хьюз

В ролях: Мэттью Бомер (Neal Caffrey), Тим ДиКей (Peter Stokes), Тиффани Тиссен (Elizabeth), Вилли Гарсон (Mozzie), Александра Даддарио (Kate)

Описание: Сериал рассказывает о сотрудничестве гениального мошенника и агента ФБР. Нил Кэффри, невероятно обаятельный преступный ум, наконец-то был пойман своим извечным врагом, отличным агентом государственной безопасности Питером Стоуксом. Когда Нил бежит из тюрьмы, чтобы найти свою пропавшую любовь, Питер ловит его еще раз. Нил предлагает ему не торопиться с отправкой в тюрьму, и рассмотреть возможность сотрудничества. Ведь Нил мог бы помочь словить самых “элитных” преступников, “белых воротничков” преступного мира. Питер понимает, что интуиция и преступный опыт Нила, которых нет у законопослушного агента, могут стать хорошим подспорьем в борьбе с криминалом

Качество: HDTVRip
Формат: AVI
Видео кодек: XviD
Аудиокодек: MP3
Видео: 624x352 (1.77:1), 23.976 fps, 996 kbps avg, 0.19 bit/pixel
Аудио: 48 kHz, MPEG Layer 3, 2 ch, 152.98 kbps avg
General
Complete name : I:\Закачки\Белый Воротничок (Сезон 3)\White.Collar.S03E01.HDTVRip.avi
Format : AVI
Format/Info : Audio Video Interleave
File size : 350 MiB
Duration : 42mn 4s
Overall bit rate : 1 163 Kbps
Writing application : Some super fast AVI muxer

Video
Format : MPEG-4 Visual
Format profile : Streaming Video@L1
Format settings, BVOP : Yes
Format settings, QPel : No
Format settings, GMC : No warppoints
Format settings, Matrix : Default (H.263)
Codec ID : XVID
Codec ID/Hint : XviD
Duration : 42mn 4s
Bit rate : 997 Kbps
Width : 624 pixels
Height : 352 pixels
Display aspect ratio : 16/9
Frame rate : 23.976 fps
Resolution : 24 bits
Colorimetry : 4:2:0
Scan type : Progressive
Bits/(Pixel*Frame) : 0.189
Stream size : 300 MiB (86%)
Writing library : XviD 70

Audio
Format : MPEG Audio
Format version : Version 1
Format profile : Layer 3
Codec ID : 55
Codec ID/Hint : MP3
Duration : 42mn 4s
Bit rate mode : Variable
Bit rate : 153 Kbps
Channel(s) : 2 channels
Sampling rate : 48.0 KHz
Resolution : 16 bits
Stream size : 46.0 MiB (13%)
Alignment : Aligned on interleaves
Interleave, duration : 24 ms (0.58 video frame)
Interleave, preload duration : 40 ms
Раздача ведётся путём добавления новых серий; при каждом добавлении создаётся новый торрент. Чтобы начать докачку новой серии, пользователям необходимо сделать следующее:
(1) остановить скачивание,
(2) удалить старый торрент у себя из клиента (старые серии удалять не надо),
(3) скачать новый торрент и запустить его у себя в клиенте вместо старого, при этом указать клиенту путь в старую папку куда и должно происходить скачивание новых серий.

Ваш клиент при этом должен произвести хеширование (проверку) старой папки (если не производит сам - помогите ему сделать это), и будет докачивать только те серии которых у вас ещё нет. Старые серии при этом не удаляются, а продолжают раздаваться!

Eсли вы уже удалили старые серии, то предотвратить повторную закачку старых серий можно, отжав галочку в соответствующих местах при запуске нового торрента. По возможности, желательно не удалять старые серии как можно дольше чтобы релизёр не столько продолжал раздавать старые серии, а смог сконцентрироваться на новых.


Трекер:  [ 01-Мар-2012 16:07 ]

  

Скачать .torrent

Размер .torrent файла 16 KB


Размер: 5.47 GB
Хэш (hash) релиза: 47ec546dfd191343eba2e3da1097ac355c81eb13
Подписка на обновления:

Еще никто не оставлял запись к записи скачать торрент Белый Воротничок White Collar . Будь первым!

!Обратная связь