Linnea_ mfc | Forgot your password? | Search Forums

Скачать через торрент Кристофер Робин Christopher Robin Фильм бесплатно в хорошем качестве torrent

Скачивайте на UnionPeer.org фильмы через торрент без регистрации. Новинки кино в хорошем качестве через торрент. На UnionPeer.org можно скачать через торрент фильмы 2014 и 2015 годов. Самые новые фильмы.

Скачать торрент Кристофер Робин Christopher Robin бесплатно через .torrent фильм мультфильм сериал

Статистика раздачи
Размер:  5.73 GB   |    Зарегистрирован:  4 дня   |    .torrent скачан:  117 раз   |   
Раздают:  1  
   
загрузка...
 
Автор Сообщение

Galfimbul

avatar Galfimbul


Кристофер Робин /Christopher Robin

Год выхода: 2018
Жанр: Мультфильм, мюзикл, фэнтези, драма, комедия, приключения, семейный
Режиссер: Марк Форстер
В ролях: Эван МакГрегор, Хейли Этвелл, Бронте Кармайкл, Марк Гейтисс, Оливер Форд Дейвис, Ронки Адеколуэхо, Эдриан Скарборо, Роджер Эштон-Гриффитс, Кен Нвосу, Джон Даглиш



О фильме: В жизни повзрослевшего Кристофера Робина царит повседневная рутина. Однажды он встречает друга детства - медвежонка Винни. Вместе им предстоит вернуться в Стоакровый лес, чтобы не только отыскать потерявшихся друзей, но и вновь обрести счастье.

Страна: США
Студия: 2DUXІ, Walt Disney Pictures
Продолжительность: 01:43:56
Перевод: Дублированный | iTunes

Качество: BDRip 720p
Видео: MPEG-4 AVC, 1280x536, 6000 Кbit/s, 23.976 fps
Звук:
Аудио #01: 48 kHz, AC3, 5.1, 384 Kbps | iTunes | RUS |
Аудио #02: 48 kHz, DTS, 5.1, 1510 Kbps | Оригинал | ENG |
Субтитры: Русские (Forced, full, SDH), английские

General
Unique ID : 308303317690054759315969479283479118716 (0xE7F10F2468EE30665A20E66C1F4B837C)
Complete name : D:Video111Christopher.Robin.2018.BDRip.720p.selezen.mkv
Format : Matroska
Format version : Version 4
File size : 5.73 GiB
Duration : 1 h 43 min
Overall bit rate : 7 895 kb/s
Movie name : Christopher Robin 2018 from селезень
Encoded date : UTC 2018-11-08 19:30:31
Writing application : mkvmerge v28.2.0 ('The Awakening') 64-bit
Writing library : libebml v1.3.6 + libmatroska v1.4.9

Video
ID : 1
Format : AVC
Format/Info : Advanced Video Codec
Format profile : High@L4.1
Format settings : CABAC / 12 Ref Frames
Format settings, CABAC : Yes
Format settings, ReFrames : 12 frames
Codec ID : V_MPEG4/ISO/AVC
Duration : 1 h 43 min
Bit rate : 6 000 kb/s
Width : 1 280 pixels
Height : 536 pixels
Display aspect ratio : 2.40:1
Frame rate mode : Constant
Frame rate : 23.976 (24000/1001) FPS
Color space : YUV
Chroma subsampling : 4:2:0
Bit depth : 8 bits
Scan type : Progressive
Bits/(Pixel*Frame) : 0.365
Stream size : 4.36 GiB (76%)
Title : selezen
Writing library : x264 core 148 r2705kMod 3f5ed56
Encoding settings : cabac=1 / ref=12 / deblock=1:-2:-2 / analyse=0x3:0x133 / me=umh / subme=11 / psy=1 / fade_compensate=0.00 / psy_rd=1.05:0.04 / mixed_ref=1 / me_range=48 / chroma_me=1 / trellis=2 / 8x8dct=1 / cqm=0 / deadzone=21,11 / fast_pskip=0 / chroma_qp_offset=-3 / threads=12 / lookahead_threads=2 / sliced_threads=0 / nr=0 / decimate=0 / interlaced=0 / bluray_compat=0 / constrained_intra=0 / fgo=0 / bframes=8 / b_pyramid=2 / b_adapt=2 / b_bias=0 / direct=3 / weightb=1 / open_gop=0 / weightp=2 / keyint=240 / keyint_min=23 / scenecut=40 / intra_refresh=0 / rc_lookahead=50 / rc=2pass / mbtree=0 / bitrate=6000 / ratetol=1.0 / qcomp=0.60 / qpmin=0 / qpmax=51 / qpstep=4 / cplxblur=20.0 / qblur=0.5 / vbv_maxrate=50000 / vbv_bufsize=62500 / nal_hrd=none / filler=0 / ip_ratio=1.40 / pb_ratio=1.30 / aq=3:0.80
Language : English
Default : Yes
Forced : No

Audio #1
ID : 2
Format : AC-3
Format/Info : Audio Coding 3
Commercial name : Dolby Digital
Codec ID : A_AC3
Duration : 1 h 43 min
Bit rate mode : Constant
Bit rate : 384 kb/s
Channel(s) : 6 channels
Channel layout : L R C LFE Ls Rs
Sampling rate : 48.0 kHz
Frame rate : 31.250 FPS (1536 SPF)
Bit depth : 16 bits
Compression mode : Lossy
Stream size : 285 MiB (5%)
Title : iTunes
Language : Russian
Service kind : Complete Main
Default : Yes
Forced : Yes

Audio #2
ID : 3
Format : DTS
Format/Info : Digital Theater Systems
Codec ID : A_DTS
Duration : 1 h 43 min
Bit rate mode : Constant
Bit rate : 1 509 kb/s
Channel(s) : 6 channels
Channel layout : C L R Ls Rs LFE
Sampling rate : 48.0 kHz
Frame rate : 93.750 FPS (512 SPF)
Bit depth : 24 bits
Compression mode : Lossy
Stream size : 1.10 GiB (19%)
Title : Original
Language : English
Default : No
Forced : No

Text #1
ID : 4
Format : UTF-8
Codec ID : S_TEXT/UTF8
Codec ID/Info : UTF-8 Plain Text
Duration : 50 min 28 s
Bit rate : 0 b/s
Count of elements : 2
Stream size : 48.0 Bytes (0%)
Title : Forced
Language : Russian
Default : Yes
Forced : Yes

Text #2
ID : 5
Format : UTF-8
Codec ID : S_TEXT/UTF8
Codec ID/Info : UTF-8 Plain Text
Duration : 1 h 40 min
Bit rate : 107 b/s
Count of elements : 1696
Stream size : 79.2 KiB (0%)
Title : Full
Language : Russian
Default : No
Forced : No

Text #3
ID : 6
Format : UTF-8
Codec ID : S_TEXT/UTF8
Codec ID/Info : UTF-8 Plain Text
Duration : 1 h 40 min
Bit rate : 116 b/s
Count of elements : 2057
Stream size : 86.1 KiB (0%)
Title : SDH
Language : Russian
Default : No
Forced : No

Text #4
ID : 7
Format : UTF-8
Codec ID : S_TEXT/UTF8
Codec ID/Info : UTF-8 Plain Text
Duration : 1 h 39 min
Bit rate : 69 b/s
Count of elements : 1891
Stream size : 50.4 KiB (0%)
Title : Full
Language : English
Default : No
Forced : No

Text #5
ID : 8
Format : UTF-8
Codec ID : S_TEXT/UTF8
Codec ID/Info : UTF-8 Plain Text
Duration : 1 h 40 min
Bit rate : 105 b/s
Count of elements : 2071
Stream size : 77.1 KiB (0%)
Title : SDH
Language : English
Default : No
Forced : No

Menu
00:00:00.000 : :00:00:00.000
00:01:43.729 : :00:01:43.729
00:07:36.289 : :00:07:36.289
00:12:32.919 : :00:12:32.919
00:23:47.843 : :00:23:47.843
00:32:18.186 : :00:32:18.186
00:44:35.673 : :00:44:35.673
00:54:39.526 : :00:54:39.526
00:59:13.800 : :00:59:13.800
01:08:01.703 : :01:08:01.703
01:18:46.180 : :01:18:46.180
01:29:59.769 : :01:29:59.769
01:36:04.467 : :01:36:04.467
01:38:32.031 : :01:38:32.031
Источник http://BlaTor.org

Трекер:  [ 09-Ноя-2018 05:10 ]

  

Скачать .torrent

Размер .torrent файла 29 KB


Размер: 5.73 GB
Хэш (hash) релиза: f003d41a34180e79118ff14596c3fa62d1e8eb0d
Подписка на обновления:

Торренты, похожие на Кристофер Робин Christopher Robin скачать торрент

Форум Название Автор Размер S L Добавлен
Зарубежные фильмы 2016-2018 (Новинки зарубежного кино) ·%· Кристофер Робин / Christopher Robin (2018) HDRip от Scarabey | iTunes Galfimbul 15520358401.45 GB 0 0 1541970627

00:10

12-Ноя-18

Зарубежные фильмы 2016-2018 (Новинки зарубежного кино) ·%· Кристофер Робин / Christopher Robin (2018) HDRip от Kaztorrents | КПК | iTunes Galfimbul 414409407395 MB 0 0 1541919073

09:51

11-Ноя-18

Зарубежные фильмы 2016-2018 (Новинки зарубежного кино) ·%· Кристофер Робин / Christopher Robin (2018) BDRip | iTunes Galfimbul 22213893452.07 GB 0 0 1541915421

08:50

11-Ноя-18

Зарубежные фильмы 2016-2018 (Новинки зарубежного кино) ·%· Кристофер Робин / Christopher Robin (2018) BDRip 1080p от qqss44 & MegaPeer | iTunes Galfimbul 81180371757.56 GB 0 0 1541896890

03:41

11-Ноя-18

Зарубежные фильмы 2016-2018 (Новинки зарубежного кино) ·%· Кристофер Робин / Christopher Robin (2018) BDRip от ExKinoRay | iTunes Galfimbul 15184929521.41 GB 0 0 1541877615

22:20

10-Ноя-18

Зарубежные фильмы 2016-2018 (Новинки зарубежного кино) ·%· Кристофер Робин / Christopher Robin (2018) HDRip от Generalfilm | КПК | iTunes Galfimbul 414589619395 MB 0 0 1541827208

08:20

10-Ноя-18

Мультфильмы 2016-2018 (Новинки мультфильмов) ·%· Кристофер Робин / Christopher Robin (2018) BDRip 1080p от селезень | iTunes Galfimbul 1160911576410.81 GB 0 0 1541742066

08:41

9-Ноя-18

Мультфильмы 2016-2018 (Новинки мультфильмов) ·%· Кристофер Робин / Christopher Robin (2018) BDRemux 1080p от селезень | iTunes Galfimbul 3016313819228.09 GB 0 0 1541731854

05:50

9-Ноя-18

Зарубежные фильмы 2016-2018 (Новинки зарубежного кино) ·%· Кристофер Робин / Christopher Robin (2018) BDRip-AVC от Dalemake | iTunes Galfimbul 16850156841.57 GB 0 0 1541721007

02:50

9-Ноя-18

Мультфильмы 2016-2018 (Новинки мультфильмов) ·%· Кристофер Робин / Christopher Robin (2018) BDRip от MegaPeer | iTunes Galfimbul 15185305601.41 GB 0 0 1541718686

02:11

9-Ноя-18

Зарубежные фильмы 2016-2018 (Новинки зарубежного кино) ·· Прощай, Кристофер Робин / Goodbye Christopher Robin (Саймон Кертис / Simon Curtis) [2017, Великобритания, Семейный, биография, история, BDRip-AVC] MVO (BD EUR) + Original (Eng) + Subs (Rus, Eng) Galfimbul 27388769212.55 GB 0 0 1519758280

22:04

27-Фев-18

Трейлеры и дополнительные материалы ·· Прощай, Кристофер Робин / Goodbye Christopher Robin (Саймон Кёртис / Simon Curtis) [2017, Семейный | Биография | История, BDRip 720p] дополнительные материалы Galfimbul 657208726627 MB 0 0 1519032875

12:34

19-Фев-18

Зарубежные фильмы 2016-2018 (Новинки зарубежного кино) ·· Прощай, Кристофер Робин / Goodbye Christopher Robin (Саймон Кертис / Simon Curtis) [2017, Великобритания, семейный, биография, история, BDRip 720p] Лицензия Galfimbul 84275935607.85 GB 0 0 1518833461

05:11

17-Фев-18

Зарубежные фильмы 2016-2018 (Новинки зарубежного кино) ·· Прощай, Кристофер Робин / Goodbye Christopher Robin (Саймон Кертис / Simon Curtis) [2017, Великобритания, семейный, биография, история, BDRip 1080p] Лицензия Galfimbul 1431488219313.33 GB 0 0 1518833424

05:10

17-Фев-18

Зарубежные фильмы до 2016 ·· Прощай, Кристофер Робин / Goodbye Christopher Robin (Саймон Кертис / Simon Curtis) [2017, Великобритания, семейный, биография, история, BDRip 1080p] MVO (iTunes) + Sub Rus,Eng + Original Eng Galfimbul 1512102803514.08 GB 0 0 1516999387

23:43

26-Янв-18

Зарубежные фильмы до 2016 ·· Прощай, Кристофер Робин / Goodbye Christopher Robin (Саймон Кертис / Simon Curtis) [2017, Великобритания, семейный, биография, история, BDRip 720p] MVO (iTunes) + Sub Rus,Eng + Original Eng Galfimbul 51612297554.81 GB 0 0 1516997250

23:07

26-Янв-18

Зарубежные фильмы 2016-2018 (Новинки зарубежного кино) ·· Прощай, Кристофер Робин / Goodbye Christopher Robin (2017) HDRip-AVC от Kaztorrents | iTunes Galfimbul 15625685551.46 GB 0 0 1515830411

11:00

13-Янв-18

Зарубежные фильмы 2016-2018 (Новинки зарубежного кино) ·· Прощай, Кристофер Робин / Goodbye Christopher Robin (Саймон Кёртис) [2017 г., семейный, биография, история, BDRip 720p] MVO | iTunes Galfimbul 61756549635.75 GB 0 0 1515828404

10:26

13-Янв-18

Зарубежные фильмы 2016-2018 (Новинки зарубежного кино) ·· Прощай, Кристофер Робин / Goodbye Christopher Robin (Саймон Кёртис) [2017 г., семейный, биография, история, HDRip] iTunes Galfimbul 22052864002.05 GB 0 0 1515738030

09:20

12-Янв-18

Еще никто не оставлял запись к записи скачать торрент Кристофер Робин Christopher Robin . Будь первым!

!Обратная связь