300 (2006) | Once Fallen film gratuit | Strangers: Prey at Night streaming movie

Скачать через торрент История одного назначения Фильм бесплатно в хорошем качестве torrent

Скачивайте на UnionPeer.org фильмы через торрент без регистрации. Новинки кино в хорошем качестве через торрент. На UnionPeer.org можно скачать через торрент фильмы 2014 и 2015 годов. Самые новые фильмы.

Скачать торрент История одного назначения бесплатно через .torrent фильм мультфильм сериал

Статистика раздачи
Размер:  746 MB   |    Зарегистрирован:  21 день   |    .torrent скачан:  138 раз   |   
Раздают:  1  
   
загрузка...
 
Автор Сообщение

Galfimbul

avatar Galfimbul


Информация о фильме
История одного назначения



[b]Год выхода:
2018
Жанр: Драма
Режиссер: Авдотья Смирнова
В ролях: Алексей Смирнов, Евгений Харитонов, Филипп Гуревич, Ирина Горбачева, Елизавета Янковская, Игорь Золотовицкий, Анна Михалкова, Сергей Уманов, Анна Пармас, Андрей Смирнов и др.

О фильме:
В пехотном полку в Тульской области, куда отправляется на службу вдохновленный передовыми идеями столичный поручик Григорий Колокольцев, происходит преступление. Солдату, на плечи которого ложится вина, грозит военный трибунал и расстрел. Колокольцев обращается за помощью к графу Толстому, который решает защитить невиновного.



Страна: Россия
Студия: Кинокомпания СТВ, Студия Глобус
Продолжительность: 01:48:51
Перевод: Не требуется | iTunes
Субтитры: нет

Файл
Формат: avi
Качество: WEB-DLRip
Видео: XviD build 73, 688x288 (2.40:1), 25.000 fps, 757 Kbps (0.153 bit/pixel)
Звук: 48.0 kHz, AC3, 2/0 ch, 192 kbps
General
Complete name : D:RazdachiIstorija.Odnogo.Naznachenija.2018.XviD.WEB-DLRip.GeneralFilm.avi
Format : AVI
Format/Info : Audio Video Interleave
File size : 746 MiB
Duration : 1 h 48 min
Overall bit rate : 958 kb/s
Writing application : VirtualDubMod 1.5.10.3 | www.virtualdub-fr.org || (build 2550/release)
Writing library : VirtualDubMod build 2550/release

Video
ID : 0
Format : MPEG-4 Visual
Format profile : Advanced Simple@L5
Format settings, BVOP : 1
Format settings, QPel : No
Format settings, GMC : No warppoints
Format settings, Matrix : Custom
Codec ID : XVID
Codec ID/Hint : XviD
Duration : 1 h 48 min
Bit rate : 757 kb/s
Width : 688 pixels
Height : 288 pixels
Display aspect ratio : 2.40:1
Frame rate : 25.000 FPS
Color space : YUV
Chroma subsampling : 4:2:0
Bit depth : 8 bits
Scan type : Progressive
Compression mode : Lossy
Bits/(Pixel*Frame) : 0.153
Stream size : 589 MiB (79%)
Writing library : XviD 73

Audio
ID : 1
Format : AC-3
Format/Info : Audio Coding 3
Format settings, Endianness : Big
Codec ID : 2000
Duration : 1 h 48 min
Bit rate mode : Constant
Bit rate : 192 kb/s
Channel(s) : 2 channels
Channel positions : Front: L R
Sampling rate : 48.0 kHz
Frame rate : 31.250 FPS (1536 SPF)
Bit depth : 16 bits
Compression mode : Lossy
Stream size : 149 MiB (20%)
Alignment : Split accross interleaves
Interleave, duration : 40 ms (1.00 video frame)
Interleave, preload duratio : 500 ms
Service kind : Complete Main
Релиз от:
Источник http://BlaTor.org

Трекер:  [ 24-Окт-2018 02:50 ]

  

Скачать .torrent

Размер .torrent файла 15 KB


Размер: 746 MB
Хэш (hash) релиза: eeb41a47316cb63ced9c95d67dccfff493d264fa
Подписка на обновления:

Торренты, похожие на История одного назначения скачать торрент

Форум Название Автор Размер S L Добавлен
Российские фильмы 2016-2018 (Новинки русского кино) ·%· История одного назначения (2018) WEB-DLRip от MegaPeer | iTunes Galfimbul 15686574081.46 GB 0 0 1540313436

19:50

23-Окт-18

Российские фильмы 2016-2018 (Новинки русского кино) ·%· История одного назначения (2018) WEB-DL 1080p | iTunes Galfimbul 40366262213.76 GB 0 0 1540296019

15:00

23-Окт-18

Российские фильмы 2016-2018 (Новинки русского кино) ·%· История одного назначения (2017) WEB-DL 1080p | iTunes Galfimbul 40366260513.76 GB 0 0 1540295611

14:53

23-Окт-18

Еще никто не оставлял запись к записи скачать торрент История одного назначения . Будь первым!

!Обратная связь