Horizon Chase Turbo (Aquiris Game Studio) (ENG|MULTi) [L] - DARKSiDERS Подробнее... Залито: 02-06-2018 11:27 (1636 просмотров) Horizon Chase Turbo (Aquiris Game Studio) (ENG|MULTi) [L] - DARKSiDERS Горячие новинки Horizon Chase Turbo - гоночная игра, вдохновленная великолепными хитами 80-х и 90-х: Out Run, Lotus Turbo Challenge, Top Gear (SNES), Rush и другие. Каждая кривая и каждый круг в Horizon Chase Turbo воссоздает классический аркадный геймплей и предлагает вам несвязанные ограничения скорости веселья. Полный... Раздают: 0 Качают: 0 Размер: 696MB | Pendidikan | Minarai Diva English Subbed

Скачать через торрент История одного назначения Фильм бесплатно в хорошем качестве torrent

Скачивайте на UnionPeer.org фильмы через торрент без регистрации. Новинки кино в хорошем качестве через торрент. На UnionPeer.org можно скачать через торрент фильмы 2014 и 2015 годов. Самые новые фильмы.

Скачать торрент История одного назначения бесплатно через .torrent фильм мультфильм сериал

Статистика раздачи
Размер:  3.76 GB   |    Зарегистрирован:  21 день   |    .torrent скачан:  133 раза   |   
Раздают:  1  
   
загрузка...
 
Автор Сообщение

Galfimbul

avatar Galfimbul


История одного назначения



[b]Год выхода:
2017
Жанр: Драма
Страна: Россия
Перевод: Не требуется
Продолжительность: 01:48:51
Режиссер: Авдотья Смирнова
В ролях: Алексей Смирнов, Евгений Харитонов, Филипп Гуревич, Ирина Горбачева, Елизавета Янковская, Игорь Золотовицкий, Анна Михалкова, Сергей Уманов, Анна Пармас, Андрей Смирнов и др.

О фильме: В пехотном полку в Тульской области, куда отправляется на службу вдохновленный передовыми идеями столичный поручик Григорий Колокольцев, происходит преступление. Солдату, на плечи которого ложится вина, грозит военный трибунал и расстрел. Колокольцев обращается за помощью к графу Толстому, который решает защитить невиновного.



Файл
Формат: MKV
Качество: WEB-DL 1080p
Видео: MPEG-4 AVC, 1920x806, 4559 kbps, 25,000 fps
Звук: русский, AC3, 5.1 ch, 48 kHz, 384 kbps | iTunes
Субтитры: нет
General
Уникальный идентификатор : 200923801325283953714160353727332341422 (0x9728843CB3DB36EEBC226B0BED95D6AE)
Полное имя : F:TorrentIstoriyaNaznacheniyaWEB-DL1080p.mkv
Формат : Matroska
Версия формата : Version 4 / Version 2
Размер файла : 3.76 GiB
Продолжительность : 1 h 48 min
Общий поток : 4 945 kb/s
Дата кодирования : UTC 2018-10-23 07:36:46
Программа кодирования : mkvmerge v9.5.0 ('Quiet Fire') 64bit
Библиотека кодирования : libebml v1.3.4 + libmatroska v1.4.5

Video
Идентификатор : 1
Формат : AVC
Формат/Информация : Advanced Video Codec
Профиль формата : High@L4
Настройки формата : CABAC / 5 Ref Frames
Параметр CABAC формата : Yes
Параметр RefFrames формата : 5 frames
Идентификатор кодека : V_MPEG4/ISO/AVC
Продолжительность : 1 h 48 min
Битрейт : 4 559 kb/s
Ширина : 1 920 pixels
Высота : 806 pixels
Соотношение сторон : 2.40:1
Режим частоты кадров : Constant
Частота кадров : 25.000 FPS
Цветовое пространство : YUV
Субдискретизация насыщенности : 4:2:0
Битовая глубина : 8 bits
Тип развёртки : Progressive
Бит/(Пиксели*Кадры) : 0.118
Размер потока : 3.47 GiB (92%)
Язык : English
Default : Yes
Forced : No
Цветовой диапазон : Limited
Основные цвета : BT.709
Характеристики трансфера : BT.709
Коэффициенты матрицы : BT.709

Audio
Идентификатор : 2
Формат : AC-3
Формат/Информация : Audio Coding 3
Идентификатор кодека : A_AC3
Продолжительность : 1 h 48 min
Вид битрейта : Constant
Битрейт : 384 kb/s
Каналы : 6 channels
Расположение каналов : Front: L C R, Side: L R, LFE
Частота : 48.0 kHz
Частота кадров : 31.250 FPS (1536 SPF)
Битовая глубина : 16 bits
Метод сжатия : Lossy
Размер потока : 299 MiB (8%)
Язык : Russian
Default : Yes
Forced : No

Menu
00:00:00.000 : en:Глава 1
00:06:55.440 : en:Глава 2
00:12:49.880 : en:Глава 3
00:18:56.520 : en:Глава 4
00:26:18.400 : en:Глава 5
00:31:03.480 : en:Глава 6
00:37:57.840 : en:Глава 7
00:43:47.040 : en:Глава 8
00:49:13.080 : en:Глава 9
00:55:30.360 : en:Глава 10
01:00:35.040 : en:Глава 11
01:06:20.440 : en:Глава 12
01:10:49.560 : en:Глава 13
01:17:36.640 : en:Глава 14
01:25:17.560 : en:Глава 15
01:32:35.040 : en:Глава 16
01:39:31.960 : en:Глава 17
Источник http://BlaTor.org

Трекер:  [ 23-Окт-2018 14:50 ]

  

Скачать .torrent

Размер .torrent файла 19 KB


Размер: 3.76 GB
Хэш (hash) релиза: c55f92edc02b6771585cd55826059aec67411c02
Подписка на обновления:

Торренты, похожие на История одного назначения скачать торрент

Форум Название Автор Размер S L Добавлен
Российские фильмы 2016-2018 (Новинки русского кино) ·%· История одного назначения (2018) WEB-DLRip от GeneralFilm | iTunes Galfimbul 782491648746 MB 0 0 1540338766

02:52

24-Окт-18

Российские фильмы 2016-2018 (Новинки русского кино) ·%· История одного назначения (2018) WEB-DLRip от MegaPeer | iTunes Galfimbul 15686574081.46 GB 0 0 1540313436

19:50

23-Окт-18

Российские фильмы 2016-2018 (Новинки русского кино) ·%· История одного назначения (2018) WEB-DL 1080p | iTunes Galfimbul 40366262213.76 GB 0 0 1540296019

15:00

23-Окт-18

Еще никто не оставлял запись к записи скачать торрент История одного назначения . Будь первым!

!Обратная связь