2013 - Game of Thrones - Season 3 - 10 (1280x720) Episodes | Play Movie | FakeDrivingSchool.18.10.22.Madison.Stuart.XXX.SD.MP4-KLEENEX

Скачать через торрент Изморозь Фильм бесплатно в хорошем качестве torrent

Скачивайте на UnionPeer.org фильмы через торрент без регистрации. Новинки кино в хорошем качестве через торрент. На UnionPeer.org можно скачать через торрент фильмы 2014 и 2015 годов. Самые новые фильмы.

Скачать торрент Изморозь бесплатно через .torrent фильм мультфильм сериал

Статистика раздачи
Размер:  745 MB   |    Зарегистрирован:  28 дней   |    .torrent скачан:  82 раза   |   
Раздают:  1  
   
загрузка...
 
Автор Сообщение

Galfimbul

avatar Galfimbul


Изморозь



[b]Год выхода:
2018
Жанр: Мелодрама
Режиссер: Валерий Цыбин
В ролях: Нина Гусева, Евгений Морозов, Антон Филипенко, Любава Грешнова, Татьяна Чернопятова, Артемий Падалка, Дмитрий Комов

О фильме: Мужчины обходят вниманием робкую и тихую Олю. Мама, подруги, работа – вот и вся ее личная жизнь. Но однажды рядом с ней оказываются сразу двое мужчин! Иннокентий (Антон Филипенко) – обаятельный красавец. Он галантно ухаживает и помогает достать редкое лекарство для матери. А случайный знакомый Андрей (Евгений Морозов) – простой охранник в банке и отец-одиночка. Он спасает Ольгу от хулиганов в парке. Ольга влюбляется в Иннокентия, но в трудную минуту и Андрей оказывается рядом. Она и не подозревает, что у ее кавалеров есть общее прошлое…


Страна: Россия
Студия: Кинокомпания «Русское»
Продолжительность: 01:28:31
Перевод: Не требуется
Субтитры: Нет

Файл
Кодек: XviD
Качество: HDTVRip
Видео: 688x384 (1.79:1), 25 fps, XviD build 73 ~1039 kbps avg, 0.16 bit/pixel
Звук: 48 kHz, MPEG Layer 3, 2 ch, ~128.00 kbps avg
General
Complete name : Izmorozb.2018.HDTVRip.ot.Portablius.avi
Format : AVI
Format/Info : Audio Video Interleave
File size : 745 MiB
Duration : 1 h 28 min
Overall bit rate : 1 177 kb/s
Writing application : VirtualDubMod 1.5.10.3 | www.virtualdub-fr.org || (build 2550/release)
Writing library : VirtualDubMod build 2550/release

Video
ID : 0
Format : MPEG-4 Visual
Format profile : Advanced Simple@L5
Format settings, BVOP : 1
Format settings, QPel : No
Format settings, GMC : No warppoints
Format settings, Matrix : Custom
Codec ID : XVID
Codec ID/Hint : XviD
Duration : 1 h 28 min
Bit rate : 1 039 kb/s
Width : 688 pixels
Height : 384 pixels
Display aspect ratio : 16:9
Frame rate : 25.000 FPS
Color space : YUV
Chroma subsampling : 4:2:0
Bit depth : 8 bits
Scan type : Progressive
Compression mode : Lossy
Bits/(Pixel*Frame) : 0.157
Stream size : 658 MiB (88%)
Writing library : XviD 73

Audio
ID : 1
Format : MPEG Audio
Format version : Version 1
Format profile : Layer 3
Codec ID : 55
Codec ID/Hint : MP3
Duration : 1 h 28 min
Bit rate mode : Constant
Bit rate : 128 kb/s
Channel(s) : 2 channels
Sampling rate : 48.0 kHz
Compression mode : Lossy
Stream size : 81.0 MiB (11%)
Alignment : Aligned on interleaves
Interleave, duration : 40 ms (1.00 video frame)
Interleave, preload duratio : 504 ms
Writing library : LAME3.99r
Encoding settings : -m s -V 4 -q 2 -lowpass 17 -b 128
Источник http://BlaTor.org

Трекер:  [ 16-Окт-2018 13:00 ]

  

Скачать .torrent

Размер .torrent файла 15 KB


Размер: 745 MB
Хэш (hash) релиза: 422796ac2b3f9df3f76f1c25f2d04091495c2c02
Подписка на обновления:

Еще никто не оставлял запись к записи скачать торрент Изморозь . Будь первым!

!Обратная связь