Скачать через торрент Очень секретная служба Au service de la France Фильм бесплатно в хорошем качестве torrent

Скачивайте на UnionPeer.org фильмы через торрент без регистрации. Новинки кино в хорошем качестве через торрент. На UnionPeer.org можно скачать через торрент фильмы 2014 и 2015 годов. Самые новые фильмы.

Скачать торрент Очень секретная служба Au service de la France бесплатно через .torrent фильм мультфильм сериал

Статистика раздачи
Размер:  10.2 GB   |    Зарегистрирован:  4 месяца 10 дней   |    .torrent скачан:  75 раз   |   
Раздают:  1  
   
загрузка...
 
Автор Сообщение

Galfimbul

avatar Galfimbul


Очень секретная служба | Au service de la France

Год выпуска: 2015
Страна: Франция
Жанр: комедия
Продолжительность: ~00:24:00

Перевод: Любительский (двухголосый закадровый) ViruseProject

Режиссёр: Жан-Франсуа Алин, Клер Лемарешаль, Жан-Андре Йерлес
В ролях: Хьюго Бекер, Вильфред Бенаиш, Кристоф Курочкин и др.

Описание: 1960-й год. Французская разведка вербует 23-летнего Андре Мерло - весьма неглупого и интеллигентного красавца, хоть и несколько впечатлительного. Парню предстоит многому научиться, чтобы служить Франции и защищать ее интересы.
Необходимую подготовку к выполнению деликатных - а иногда и очень необычных - миссий ему обеспечат трое сотрудников разведки, а Мерло в процессе столкнется с дипломатическими инцидентами и изучит тонкости политики.

Качество: WEB-DL 1080p
Контейнер: MKV
Видео: 1920 x 1080 (16:9), ~7 500 Kbps, 25.000 fps, 8 bits
Аудио: 48 kHz, AC3, 2 channels, 192 kb/s
Аудио 2: 48 kHz, AC3, 6 channels, 384 kb/s
Субтитры: русские, английские, датские, испанские, итальянские, японские, польские, португальские, румынские, шведские, турецкие

Реклама: В аудио в начале и конце по 12 секунд.

Внимание! Раздача ведётся путём добавления новых серий; при каждом добавлении создаётся новый торрент. Чтобы начать докачку новой серии, пользователям необходимо сделать следующее:
(1) остановить скачивание,
(2) удалить старый торрент у себя из клиента (старые серии удалять не надо),
(3) скачать новый торрент и запустить его у себя в клиенте вместо старого, при этом указать клиенту путь в старую папку куда и должно происходить скачивание новых серий.

Eсли вы уже удалили старые серии, то предотвратить повторную закачку старых серий можно, отжав галочку в соответствующих местах при запуске нового торрента. По возможности, желательно не удалять старые серии как можно дольше чтобы релизёр не столько продолжал раздавать старые серии, а смог сконцентрироваться на новых.
General
Unique ID : 232877262070367561852180725007477882564 (0xAF32877C320E98FFA86B4BC6852FBEC4)
Complete name : E:\ОЗВУЧКА\777ЗАЛИВ777\Au.service.de.la.France.S01.ViruseProject\Au.service.de.la.France.S01.1080p.ViruseProject\Au.service.de.la.France.S01E01.1080p.WEB-DL.ViruseProject.mkv
Format : Matroska
Format version : Version 4 / Version 2
File size : 1.39 GiB
Duration : 24 min 40 s
Overall bit rate mode : Variable
Overall bit rate : 8 062 kb/s
Encoded date : UTC 2018-07-26 09:33:59
Writing application : mkvmerge v8.3.0 ('Over the Horizon') 64bit
Writing library : libebml v1.3.1 + libmatroska v1.4.2

Video
ID : 1
Format : AVC
Format/Info : Advanced Video Codec
Format profile : Main@L4
Format settings, CABAC : Yes
Format settings, ReFrames : 3 frames
Codec ID : V_MPEG4/ISO/AVC
Duration : 24 min 40 s
Bit rate mode : Variable
Bit rate : 7 500 kb/s
Maximum bit rate : 11.2 Mb/s
Width : 1 920 pixels
Height : 1 080 pixels
Display aspect ratio : 16:9
Frame rate mode : Constant
Frame rate : 25.000 FPS
Color space : YUV
Chroma subsampling : 4:2:0
Bit depth : 8 bits
Scan type : Progressive
Bits/(Pixel*Frame) : 0.145
Stream size : 1.29 GiB (93%)
Writing library : x264 core 118
Encoding settings : cabac=1 / ref=3 / deblock=1:0:0 / analyse=0x1:0x111 / me=umh / subme=10 / psy=1 / psy_rd=1.00:0.00 / mixed_ref=1 / me_range=24 / chroma_me=1 / trellis=2 / 8x8dct=0 / cqm=0 / deadzone=21,11 / fast_pskip=1 / chroma_qp_offset=-2 / threads=6 / sliced_threads=0 / nr=0 / decimate=1 / interlaced=0 / bluray_compat=0 / constrained_intra=0 / bframes=2 / b_pyramid=0 / b_adapt=2 / b_bias=0 / direct=3 / weightb=1 / open_gop=0 / weightp=2 / keyint=50 / keyint_min=26 / scenecut=0 / intra_refresh=0 / rc_lookahead=0 / rc=2pass / mbtree=1 / bitrate=7500 / ratetol=1.0 / qcomp=0.50 / qpmin=6 / qpmax=51 / qpstep=4 / cplxblur=20.0 / qblur=0.5 / vbv_maxrate=11250 / vbv_bufsize=15000 / nal_hrd=vbr / ip_ratio=1.40 / aq=1:1.00
Default : Yes
Forced : No

Audio #1
ID : 2
Format : AC-3
Format/Info : Audio Coding 3
Format settings, Endianness : Big
Codec ID : A_AC3
Duration : 24 min 40 s
Bit rate mode : Constant
Bit rate : 192 kb/s
Channel(s) : 2 channels
Channel positions : Front: L R
Sampling rate : 48.0 kHz
Frame rate : 31.250 FPS (1536 spf)
Bit depth : 16 bits
Compression mode : Lossy
Stream size : 33.9 MiB (2%)
Title : ViruseProject
Language : Russian
Service kind : Complete Main
Default : Yes
Forced : No

Audio #2
ID : 3
Format : AC-3
Format/Info : Audio Coding 3
Format settings, Endianness : Big
Codec ID : A_AC3
Duration : 24 min 40 s
Bit rate mode : Constant
Bit rate : 384 kb/s
Channel(s) : 6 channels
Channel positions : Front: L C R, Side: L R, LFE
Sampling rate : 48.0 kHz
Frame rate : 31.250 FPS (1536 spf)
Bit depth : 16 bits
Compression mode : Lossy
Stream size : 67.8 MiB (5%)
Language : French
Service kind : Complete Main
Default : No
Forced : No

Text #1
ID : 4
Format : UTF-8
Codec ID : S_TEXT/UTF8
Codec ID/Info : UTF-8 Plain Text
Duration : 23 min 26 s
Bit rate : 59 b/s
Count of elements : 287
Stream size : 10.3 KiB (0%)
Title : ViruseProject
Language : Russian
Default : No
Forced : No

Text #2
ID : 5
Format : UTF-8
Codec ID : S_TEXT/UTF8
Codec ID/Info : UTF-8 Plain Text
Duration : 24 min 12 s
Bit rate : 36 b/s
Count of elements : 285
Stream size : 6.41 KiB (0%)
Language : English
Default : No
Forced : No

Text #3
ID : 6
Format : UTF-8
Codec ID : S_TEXT/UTF8
Codec ID/Info : UTF-8 Plain Text
Duration : 24 min 13 s
Bit rate : 34 b/s
Count of elements : 279
Stream size : 6.14 KiB (0%)
Language : Danish
Default : No
Forced : No

Text #4
ID : 7
Format : UTF-8
Codec ID : S_TEXT/UTF8
Codec ID/Info : UTF-8 Plain Text
Duration : 24 min 13 s
Bit rate : 37 b/s
Count of elements : 284
Stream size : 6.64 KiB (0%)
Language : Spanish
Default : No
Forced : No

Text #5
ID : 8
Format : UTF-8
Codec ID : S_TEXT/UTF8
Codec ID/Info : UTF-8 Plain Text
Duration : 23 min 56 s
Bit rate : 38 b/s
Count of elements : 287
Stream size : 6.68 KiB (0%)
Language : Italian
Default : No
Forced : No

Text #6
ID : 9
Format : UTF-8
Codec ID : S_TEXT/UTF8
Codec ID/Info : UTF-8 Plain Text
Duration : 23 min 55 s
Bit rate : 28 b/s
Count of elements : 286
Stream size : 4.99 KiB (0%)
Language : Japanese
Default : No
Forced : No

Text #7
ID : 10
Format : UTF-8
Codec ID : S_TEXT/UTF8
Codec ID/Info : UTF-8 Plain Text
Duration : 23 min 50 s
Bit rate : 34 b/s
Count of elements : 284
Stream size : 6.01 KiB (0%)
Language : Norwegian Bokmal
Default : No
Forced : No

Text #8
ID : 11
Format : UTF-8
Codec ID : S_TEXT/UTF8
Codec ID/Info : UTF-8 Plain Text
Duration : 24 min 5 s
Bit rate : 37 b/s
Count of elements : 280
Stream size : 6.61 KiB (0%)
Language : Dutch
Default : No
Forced : No

Text #9
ID : 12
Format : UTF-8
Codec ID : S_TEXT/UTF8
Codec ID/Info : UTF-8 Plain Text
Duration : 23 min 56 s
Bit rate : 32 b/s
Count of elements : 280
Stream size : 5.74 KiB (0%)
Language : Polish
Default : No
Forced : No

Text #10
ID : 13
Format : UTF-8
Codec ID : S_TEXT/UTF8
Codec ID/Info : UTF-8 Plain Text
Duration : 23 min 50 s
Bit rate : 38 b/s
Count of elements : 280
Stream size : 6.64 KiB (0%)
Language : Portuguese
Default : No
Forced : No

Text #11
ID : 14
Format : UTF-8
Codec ID : S_TEXT/UTF8
Codec ID/Info : UTF-8 Plain Text
Duration : 23 min 48 s
Bit rate : 38 b/s
Count of elements : 255
Stream size : 6.79 KiB (0%)
Language : Romanian
Default : No
Forced : No

Text #12
ID : 15
Format : UTF-8
Codec ID : S_TEXT/UTF8
Codec ID/Info : UTF-8 Plain Text
Duration : 24 min 5 s
Bit rate : 36 b/s
Count of elements : 280
Stream size : 6.37 KiB (0%)
Language : Swedish
Default : No
Forced : No

Text #13
ID : 16
Format : UTF-8
Codec ID : S_TEXT/UTF8
Codec ID/Info : UTF-8 Plain Text
Duration : 23 min 50 s
Bit rate : 35 b/s
Count of elements : 280
Stream size : 6.24 KiB (0%)
Language : Turkish
Default : No
Forced : No
[b]Предыдущие и альтернативные раздачи

Трекер:  [ 30-Июл-2018 09:18 ]

  

Скачать .torrent

Размер .torrent файла 52 KB


Размер: 10.2 GB
Хэш (hash) релиза: f75af19655c8136b609a695bd60fd6982dfbd711
Подписка на обновления:

Еще никто не оставлял запись к записи скачать торрент Очень секретная служба Au service de la France . Будь первым!

!Обратная связь
Chatroom | NTSF:SD:SUV:: | rowdy baadsha