Скачать через торрент Лев Яшин – номер один Фильм бесплатно в хорошем качестве torrent

Скачивайте на UnionPeer.org фильмы через торрент без регистрации. Новинки кино в хорошем качестве через торрент. На UnionPeer.org можно скачать через торрент фильмы 2014 и 2015 годов. Самые новые фильмы.

Скачать торрент Лев Яшин – номер один бесплатно через .torrent фильм мультфильм сериал

Статистика раздачи
Размер:  2.24 GB   |    Зарегистрирован:  4 месяца 22 дня   |    .torrent скачан:  35 раз   |   
Раздают:  1  
   
загрузка...
 
Автор Сообщение

Galfimbul

avatar Galfimbul


Лев Яшин – номер один

Страна: Россия
Студия: Телеканал "Россия", ВГТРК, АНО "Продюсерский центр "Динамо", ООО "ВИБ-Фильм"
Жанр: Документальный, биография
Год выпуска: 2018
Продолжительность: 00:52:31
Режиссёр: Светлана Крапивина

Описание: Лев Яшин. Легенда советского футбола. Лучший вратарь ХХ века. Единственный из множества великолепных голкиперов, удостоенный престижнейшей награды – "Золотой мяч" лучшего футболиста Европы. Во всем мире его называли Черная пантера – за его всегда черную вратарскую форму, подвижность и акробатические прыжки, Черный паук или Черный осьминог – за его длинные, все достающие руки. На его долю выпали не только многочисленные победы и награды, но и очень драматичные повороты судьбы.

Доп. информация:
Автор релиза -
Источник - HDTV 1080i TS - моя запись с канала Россия-1 HD

Сэмпл: http://yadi.sk/i/AFnTvbQr3YMMYM



Рекламы нет!

Качество видео: HDTV 1080i
Формат видео: TS

Видео: MPEG-4, 1920x1080 (16:9), 25.000 fps, 5605 kbps, 0.108 bit/pixel
Аудио: Русский МР2, 48000 Гц, 2ch, 192 kbps
ОбщееИдентификатор : 1 (0x1)Полное имя : D:\Лев.Яшин.номер.один.2018.HDTV.1080i-ylnian.tsФормат : MPEG-TSРазмер файла : 2,24 ГбайтПродолжительность : 52 м. 31 с.Режим общего битрейта : ПеременныйОбщий поток : 6101 Кбит/сек

ВидеоИдентификатор : 1178 (0x49A)Идентификатор меню : 1138 (0x472)Формат : AVCФормат/Информация : Advanced Video CodecПрофиль формата : High@L4Настройки формата : CABAC / 4 Ref FramesПараметр CABAC формата : ДаПараметр RefFrames формата : 4 кадраИдентификатор кодека : 27Продолжительность : 52 м. 31 с.Битрейт : 5605 Кбит/секШирина : 1920 пикселейВысота : 1080 пикселейСоотношение сторон : 16:9Частота кадров : 25,000 кадров/секСтандарт вещания : ComponentЦветовое пространство : YUVСубдискретизация насыщенности : 4:2:0Битовая глубина : 8 битТип развёртки : ЧересстрочнаяМетод сохранения типа развёртки : Раздельные поляПорядок развёртки : Верхнее поле первоеБит/(Пиксели*Кадры) : 0.108Размер потока : 2,06 Гбайт (92%)Цветовой диапазон : LimitedОсновные цвета : BT.709Характеристики трансфера : BT.709Коэффициенты матрицы : BT.709

АудиоИдентификатор : 1179 (0x49B)Идентификатор меню : 1138 (0x472)Формат : MPEG AudioВерсия формата : Version 1Профиль формата : Layer 2Идентификатор кодека : 3Продолжительность : 52 м. 31 с.Вид битрейта : ПостоянныйБитрейт : 192 Кбит/секКаналы : 2 каналаЧастота : 48,0 КГцЧастота кадров : 41,667 кадра/сек (1152 SPF)Метод сжатия : С потерямиЗадержка видео : -120 мс.Размер потока : 72,1 Мбайт (3%)Язык : Russian


Трекер:  [ 25-Июн-2018 08:36 ]

  

Скачать .torrent

Размер .torrent файла 11 KB


Размер: 2.24 GB
Хэш (hash) релиза: 7f69cb2771857cfbb9b3fbd6ddb6bf37158ede84
Подписка на обновления:

Торренты, похожие на Лев Яшин – номер один скачать торрент

Форум Название Автор Размер S L Добавлен
Спорт ·%· Лев Яшин – номер один (Светлана Крапивина) [2018, Россия, Документальный, биография, HDTVRip] Galfimbul 784160768748 MB 0 0 1530016948

15:42

26-Июн-18

Еще никто не оставлял запись к записи скачать торрент Лев Яшин – номер один . Будь первым!

!Обратная связь
Splenschrnke | 2011 Air Jordan 7 Bordeaux, Size 10.5 (bred,royal,shadow) 1 2 3 3 5 6 7 8 9 10 | Young Black Jack Sub Indo Batch Eps 1-12 Lengkap