Скачать через торрент Игорь Спасский. Конструктор подводных лодок Фильм бесплатно в хорошем качестве torrent

Скачивайте на UnionPeer.org фильмы через торрент без регистрации. Новинки кино в хорошем качестве через торрент. На UnionPeer.org можно скачать через торрент фильмы 2014 и 2015 годов. Самые новые фильмы.

Скачать торрент Игорь Спасский. Конструктор подводных лодок бесплатно через .torrent фильм мультфильм сериал

Статистика раздачи
Размер:  361 MB   |    Зарегистрирован:  4 месяца 23 дня   |    .torrent скачан:  52 раза   |   
Раздают:  1  
   
загрузка...
 
Автор Сообщение

Galfimbul

avatar Galfimbul


Игорь Спасский. Конструктор подводных лодок

Дата/Год выпуска: 2013
Страна: Россия
Жанр: биографический, военно-морской флот
Продолжительность: 00:14:03 + 00:12:04 + 00:14:10
Перевод: Не требуется
Русские субтитры: нет
Оригинальная аудиодорожка: русский
Режиссер: Светлана Ивашова
Телеканал: RTG TV

Описание: Игорь Спасский - один из создателей подводного флота России. Около двухсот субмарин построено под его руководством. Имя Спасского неразрывно связано со старейшим российским предприятием по проектированию и производству подводных лодок — центральным конструкторским бюро морской техники «Рубин». Оно отсчитывает свою историю с 1901 года. И более трети времени существования Рубина - 35 лет - им руководил Игорь Дмитриевич. Сегодня он занимается наукой и продолжает участвовать в жизни предприятия, где разрабатываются новые поколения подводных лодок. Впрочем, на его счету множество других, сухопутных и мирных проектов. Деятельность по созданию подводных судов - лишь вершина огромного айсберга, имя которому - Игорь Спасский.

качество: HDTVRip
формат: AVI
Видео: MPEG4, XviD, 720x400 (16:9), 25.000 fps, 1 160 Kbps (0.161 bit/pixel)
Аудио: MP3, 48.0 KHz, 2 ch, 128 Kbps, CBR
Часть 1
Часть 2
Часть 3
GeneralComplete name : C:\Users\User\Downloads\Игорь Спасский. Конструктор подводных лодок\Часть 1.aviFormat : AVIFormat/Info : Audio Video InterleaveFile size : 131 MiBDuration : 14mn 3sOverall bit rate : 1 298 KbpsWriting library : Boilsoft Joiner build 2411/release

VideoID : 0Format : MPEG-4 VisualFormat profile : Advanced Simple@L5Format settings, BVOP : 2Format settings, QPel : NoFormat settings, GMC : No warppointsFormat settings, Matrix : Default (H.263)Codec ID : XVIDCodec ID/Hint : XviDDuration : 14mn 3sBit rate : 1 160 KbpsWidth : 720 pixelsHeight : 400 pixelsDisplay aspect ratio : 16:9Frame rate : 25.000 fpsColor space : YUVChroma subsampling : 4:2:0Bit depth : 8 bitsScan type : ProgressiveCompression mode : LossyBits/(Pixel*Frame) : 0.161Stream size : 117 MiB (89%)Writing library : XviD 1.2.1 (UTC 2008-12-04)

AudioID : 1Format : MPEG AudioFormat version : Version 1Format profile : Layer 3Codec ID : 55Codec ID/Hint : MP3Duration : 14mn 3sBit rate mode : ConstantBit rate : 128 KbpsChannel(s) : 2 channelsSampling rate : 48.0 KHzCompression mode : LossyStream size : 12.9 MiB (10%)Alignment : Aligned on interleavesInterleave, duration : 40 ms (1.00 video frame)Interleave, preload duration : 480 msWriting library : LAME3.99rEncoding settings : -m s -V 4 -q 2 -lowpass 17 -b 128


Трекер:  [ 23-Июн-2018 23:36 ]

  

Скачать .torrent

Размер .torrent файла 14 KB


Размер: 361 MB
Хэш (hash) релиза: a297710391097a2702f6d2280e57b38bdfa50e6a
Подписка на обновления:

Торренты, похожие на Игорь Спасский. Конструктор подводных лодок скачать торрент

Форум Название Автор Размер S L Добавлен
Документальные фильмы и телепередачи ·· Игорь Спасский. Конструктор подводных лодок (Светлана Ивашова) [2013, документальный, TVRip] Galfimbul 365701120349 MB 0 0 1446736492

18:14

5-Ноя-15

Еще никто не оставлял запись к записи скачать торрент Игорь Спасский. Конструктор подводных лодок . Будь первым!

!Обратная связь
Gutschein | Shimano Dura-Ace 9100 pegatinas vinilo adhesivo para bielas | Baby Alive Super Snacks Snackin' Lily Doll Brunette