Скачать через торрент Аншлаг. Светлана Рожкова и Игорь Маменко 2018.04.27 Фильм бесплатно в хорошем качестве torrent

Скачивайте на UnionPeer.org фильмы через торрент без регистрации. Новинки кино в хорошем качестве через торрент. На UnionPeer.org можно скачать через торрент фильмы 2014 и 2015 годов. Самые новые фильмы.

Скачать торрент Аншлаг. Светлана Рожкова и Игорь Маменко 2018.04.27 бесплатно через .torrent фильм мультфильм сериал

Статистика раздачи
Размер:  2.47 GB   |    Зарегистрирован:  6 месяцев   |    .torrent скачан:  33 раза   |   
Раздают:  1  
   
загрузка...
 
Автор Сообщение

Galfimbul

avatar Galfimbul


Аншлаг. Светлана Рожкова и Игорь Маменко 2018.04.27

Дата/Год выпуска: 2018
Страна: Россия
Жанр: Юмор
Продолжительность: 02:11:29
Перевод: Не требуется
Русские субтитры: нет

Оригинальная аудиодорожка: русский
Описание: Сегодня в "Аншлаге" - бенефис Светланы Рожковой и Игоря Маменко!
Компанию им составят: Владимир Данилец, Владимир Моисеенко, Юрий Евдокунин и Сергей Дроботенко.

качество: HDTVRip720p
формат: mkv
Видео: H264; 1280x720 (16:9); 25.000 fps; ~2 500 kb/s
Аудио: AC3, 48000Hz, 2 channels 192 Кбит/сек
GeneralUnique ID : 183405781395567121851476623522855691016 (0x89FAAB2BC067E616AA5B177E1574A308)Complete name : C:\Аншлаг. Светлана Рожкова и Игорь Маменко 2018.04.27.mkvFormat : MatroskaFormat version : Version 2File size : 2.47 GiBDuration : 2 h 11 minOverall bit rate : 2 694 kb/sEncoded date : UTC 2018-04-28 11:21:46Writing application : mkvmerge v7.8.0 ('River Man') 32bit built on Apr 3 2015 12:11:22Writing library : libebml v1.3.1 + libmatroska v1.4.2

VideoID : 1Format : AVCFormat/Info : Advanced Video CodecFormat profile : High@L4.1Format settings : CABAC / 4 Ref FramesFormat settings, CABAC : YesFormat settings, RefFrames : 4 framesCodec ID : V_MPEG4/ISO/AVCDuration : 2 h 11 minBit rate : 2 500 kb/sWidth : 1 280 pixelsHeight : 720 pixelsDisplay aspect ratio : 16:9Frame rate mode : ConstantFrame rate : 25.000 FPSColor space : YUVChroma subsampling : 4:2:0Bit depth : 8 bitsScan type : ProgressiveBits/(Pixel*Frame) : 0.109Stream size : 2.25 GiB (91%)Writing library : x264 core 146 r2538 121396cEncoding settings : cabac=1 / ref=3 / deblock=1:-1:-1 / analyse=0x3:0x113 / me=umh / subme=9 / psy=1 / psy_rd=1.00:0.15 / mixed_ref=1 / me_range=32 / chroma_me=1 / trellis=1 / 8x8dct=1 / cqm=0 / deadzone=21,11 / fast_pskip=1 / chroma_qp_offset=-3 / threads=6 / lookahead_threads=1 / sliced_threads=0 / nr=0 / decimate=1 / interlaced=0 / bluray_compat=0 / constrained_intra=0 / bframes=6 / b_pyramid=2 / b_adapt=1 / b_bias=0 / direct=3 / weightb=1 / open_gop=0 / weightp=2 / keyint=250 / keyint_min=25 / scenecut=40 / intra_refresh=0 / rc_lookahead=40 / rc=2pass / mbtree=1 / bitrate=2500 / ratetol=1.0 / qcomp=0.60 / qpmin=0 / qpmax=69 / qpstep=4 / cplxblur=20.0 / qblur=0.5 / ip_ratio=1.40 / aq=1:1.00Default : YesForced : No

AudioID : 2Format : AC-3Format/Info : Audio Coding 3Format settings, Endianness : BigCodec ID : A_AC3Duration : 2 h 11 minBit rate mode : ConstantBit rate : 192 kb/sChannel(s) : 2 channelsChannel positions : Front: L RSampling rate : 48.0 kHzFrame rate : 31.250 FPS (1536 SPF)Bit depth : 16 bitsCompression mode : LossyStream size : 181 MiB (7%)Service kind : Complete MainDefault : YesForced : No


Трекер:  [ 29-Апр-2018 09:12 ]

  

Скачать .torrent

Размер .torrent файла 13 KB


Размер: 2.47 GB
Хэш (hash) релиза: d8a578bc4c1e0a18f2c9d5134dd321c7c54601bc
Подписка на обновления:

Торренты, похожие на Аншлаг. Светлана Рожкова и Игорь Маменко 2018.04.27 скачать торрент

Форум Название Автор Размер S L Добавлен
Развлекательные телепередачи и шоу ·· Аншлаг. Светлана Рожкова и Игорь Маменко 2018.04.27 [2018, Юмор, HDTV 1080i] Galfimbul 85698715247.98 GB 0 0 1524890530

07:42

28-Апр-18

Еще никто не оставлял запись к записи скачать торрент Аншлаг. Светлана Рожкова и Игорь Маменко 2018.04.27 . Будь первым!

!Обратная связь
Sardor Ahmedov Sensiz Mp3 | Business | Download APK