Скачать через торрент Песнь о тюльпанах Фильм бесплатно в хорошем качестве torrent

Скачивайте на UnionPeer.org фильмы через торрент без регистрации. Новинки кино в хорошем качестве через торрент. На UnionPeer.org можно скачать через торрент фильмы 2014 и 2015 годов. Самые новые фильмы.

Скачать торрент Песнь о тюльпанах бесплатно через .torrent фильм мультфильм сериал

Статистика раздачи
Размер:  75 MB   |    Зарегистрирован:  9 месяцев   |    .torrent скачан:  22 раза   |   
Раздают:  1  
   
загрузка...
 
Автор Сообщение

Galfimbul

avatar Galfimbul


Песнь о тюльпанах

Страна: СССР (Узбекская республика)
Жанр: мультфильм
Продолжительность: 00:07:45
Год выпуска: 1981

Режиссёр: Светлана Муратходжаева

Композитор: Феликс Янов-Яновский

Описание: По мотивам узбекской народной легенды о трагической любви бедного юноши и красивой девушки. Жестокий хан, получив отказ красавицы, приказал уничтожить всё селение...

Качество: WEBRip
Формат: AVI
Видео: 1202 kbps, 640х480 (4:3), 25.000 fps, MPEG-4 Visual (XviD)
Аудио: 128 kbps, 44.1 kHz, 2 channels, MPEG Audio (MP3)
Субтитры: отсутствуют
GeneralComplete name : Песнь о тюльпанах (1981).aviFormat : AVIFormat/Info : Audio Video InterleaveFile size : 74.6 MiBDuration : 7mn 45sOverall bit rate : 1 343 KbpsWriting application : Lavf55.19.104

VideoID : 0Format : MPEG-4 VisualFormat profile : Advanced Simple@L4Format settings, BVOP : 2Format settings, QPel : NoFormat settings, GMC : No warppointsFormat settings, Matrix : Default (H.263)Codec ID : XVIDCodec ID/Hint : XviDDuration : 7mn 45sBit rate : 1 202 KbpsWidth : 640 pixelsHeight : 480 pixelsDisplay aspect ratio : 4:3Frame rate : 25.000 fpsColor space : YUVChroma subsampling : 4:2:0Bit depth : 8 bitsScan type : ProgressiveCompression mode : LossyBits/(Pixel*Frame) : 0.157Stream size : 66.8 MiB (90%)Writing library : XviD 73

AudioID : 1Format : MPEG AudioFormat version : Version 1Format profile : Layer 3Mode : Joint stereoMode extension : MS StereoCodec ID : 55Codec ID/Hint : MP3Duration : 7mn 45sBit rate mode : ConstantBit rate : 128 KbpsChannel(s) : 2 channelsSampling rate : 44.1 KHzCompression mode : LossyStream size : 7.11 MiB (10%)Alignment : Aligned on interleavesInterleave, duration : 26 ms (0.65 video frame)


Трекер:  [ 16-Фев-2018 15:06 ]

  

Скачать .torrent

Размер .torrent файла 12 KB


Размер: 75 MB
Хэш (hash) релиза: af3cc0f4757bdb24c8440da23e6c2979d1628c03
Подписка на обновления:

Еще никто не оставлял запись к записи скачать торрент Песнь о тюльпанах . Будь первым!

!Обратная связь
Watch Movie | Lost Found Music Studios (3) | One Direction - Perfect.