Museo - Folle rapina a Città del Messico | 1x882 Acacias 38 | Jyo Kairi

Скачать через торрент Мама всегда рядом Фильм бесплатно в хорошем качестве torrent

Скачивайте на UnionPeer.org фильмы через торрент без регистрации. Новинки кино в хорошем качестве через торрент. На UnionPeer.org можно скачать через торрент фильмы 2014 и 2015 годов. Самые новые фильмы.

Скачать торрент Мама всегда рядом бесплатно через .torrent фильм мультфильм сериал

Статистика раздачи
Размер:  2.54 GB   |    Зарегистрирован:  1 год 7 месяцев   |    .torrent скачан:  45 раз   |   
Раздают:  1  
   
загрузка...
 
Автор Сообщение

Galfimbul

avatar Galfimbul


Мама всегда рядом

Жанр: Триллер, драма, короткометражный
Год выпуска: 2016
Продолжительность: 00:34:28

Режиссёр: Евгений Пузыревский

В ролях: Александра Харитонова, Ангелина Стречина, Денис Шведов ("Майор", "Измены", "Мажор" и др.)

Композитор: Антон Завьялов (группа "25/17", "Лёд9")

Описание: Поздней ночью в загородный дом врывается отчаянная женщина с ружьём и с порога стреляет в хозяина. Но нападавшая не знает, что мужчина в доме не один.

Кинопоиск: http://www.kinopoisk.ru/film/1008493/
Инстаграм: http://www.instagram.com/mamavsegdaryadom/

Возраст: 18+

Качество видео: HDRip
Формат видео: Mov

Видео: MPEG-4 AVC, 10.5 Мбит/с, 2048x858
Аудио: AАC, 2 ch, 128 Кбит/с
General
Complete name : Mama.vsegda.ryadom__2016.HD1080P.mov
Format : MPEG-4
Format profile : QuickTime
Codec ID : qt
File size : 2.54 GiB
Duration : 34mn 28s
Overall bit rate mode : Variable
Overall bit rate : 10.5 Mbps
Writing library : Apple QuickTime

Video
ID : 1
Format : AVC
Format/Info : Advanced Video Codec
Format profile : High@L4.0
Format settings, CABAC : Yes
Format settings, ReFrames : 2 frames
Format settings, GOP : M=2, N=12
Codec ID : avc1
Codec ID/Info : Advanced Video Coding
Duration : 34mn 28s
Bit rate mode : Variable
Bit rate : 10.4 Mbps
Maximum bit rate : 768 Kbps
Width : 2 048 pixels
Height : 858 pixels
Display aspect ratio : 2.40:1
Frame rate mode : Constant
Frame rate : 24.000 fps
Original frame rate : 25.000 fps
Color space : YUV
Chroma subsampling : 4:2:0
Bit depth : 8 bits
Scan type : Progressive
Bits/(Pixel*Frame) : 0.246
Stream size : 2.50 GiB (98%)

Audio
ID : 2
Format : AAC
Format/Info : Advanced Audio Codec
Format profile : LC
Codec ID : 40
Duration : 34mn 28s
Source duration : 34mn 28s
Bit rate mode : Constant
Bit rate : 128 Kbps
Channel(s) : 2 channels
Channel positions : Front: L R
Sampling rate : 48.0 KHz
Compression mode : Lossy
Stream size : 30.9 MiB (1%)
Source stream size : 30.9 MiB (1%)
Короткометражный фильм "Мама всегда рядом" является частью будущего полнометражного фильма "Семейный ужин".

Фильм будет состоять из трех взаимосвязанных историй, действие которых развивается в 30х, в 90х и в наше время.

После загадочной смерти матери, молодая девушка переезжает жить к отцу, с которым не виделась много лет. Она изо всех сил пытается стать частью новой семьи, но её мачеха совершенно уверенна, что в девушке прячется жестокий убийца.

У одинокой старушки страдающей провалами в памяти, объявляется сын и просит несколько дней присмотреть за семилетней внучкой.  Сможет ли женщина обрести семью, если она их даже не помнит, а за её внучкой охотятся все бандиты города?

Поздней ночью в загородный дом врывается отчаянная женщина с ружьём и с порога стреляет в хозяина. Но нападавшая не знает, что мужчина в доме не один.


Трекер:  [ 18-Мар-2017 16:30 ]

  

Скачать .torrent

Размер .torrent файла 26 KB


Размер: 2.54 GB
Хэш (hash) релиза: bf9fc9b8752e94df1a3ee1aeff2b0d2ebfda365b
Подписка на обновления:

Торренты, похожие на Мама всегда рядом скачать торрент

Форум Название Автор Размер S L Добавлен
Российские фильмы до 2016 ·· Мама всегда рядом (Евгений Пузыревский) [2016, триллер, драма, короткометражка, WEB-DLRip-AVC] Galfimbul 584511627557 MB 0 0 1508828411

10:00

24-Окт-17

Российские фильмы до 2016 ·· Мама всегда рядом (Евгений Пузыревский) [2016, Триллер, драма, короткометражный, WEB-DLRip] Galfimbul 991265685945 MB 0 0 1490541321

18:15

26-Мар-17

Еще никто не оставлял запись к записи скачать торрент Мама всегда рядом . Будь первым!

!Обратная связь